Fleetwood Mac Dreams Torrent

  

From their top-selling album Rumours, “Dreams” was Fleetwood Mac’s only No. 1 hit in the US back in 1977. The song was written by Stevie Nicks at a turbulent time for the band. Fleetwood Mac, also known as Peter Green's Fleetwood Mac, is the debut studio album by British blues rock band Fleetwood Mac, released on 24 February 1968.The album is a mixture of blues covers and originals penned by guitarists Peter Green and Jeremy Spencer, who also share the vocal duties.It is the only album by the band without any involvement of keyboardist/vocalist.

Download Spss 20 Mac Free - real advice. SPSS Graduate Pack 13.0 for Mac OS X. Get more than student versions. With this full version of SPSS, you won't be constrained by case and variable limitations. Spss 20 Mac Os X 10 11 Download Free. Macbook (Alu), Mac OS X (10.6.4) Posted on Mar 23, 2012 2:22 AM. I am another person running the academic version of SPSS 20 and Max OS 10.7.4. Spss 20.0 free download.

  1. Fleetwood Mac Discography Torrent
  2. Fleetwood Mac Albums
  3. Fleetwood Mac Mp3 Download
  4. All Fleetwood Mac Albums
http://www.dimeadozen.org/torrents-d..php?id=670604
Fleetwood Mac
The Forum
Inglewood, CA
August 30, 1977
Mike Millard Original Master Tapes via JEMS
The Lost and Found Mike the MICrophone Tapes Volume 21
Recording Gear: AKG 451E Microphones (CK-1 cardioid capsules) > Nakamichi 550 Cassette Recorder
Transfer: Mike Millard Master Cassettes > Yamaha KX-W592 Cassette Deck > Sony R-500 DAT > Analog Master DAT Clone > Focusrite Scarlett 6i6 > Sound Forge Audio Studio 13.0 capture > iZotope RX6 > iZotope Ozone 6 > Audacity > xACT 2.39 > FLAC
01 Say You Love Me
02 Monday Morning
03 Dreams
04 Oh Well
05 Rhiannon
06 Oh Daddy
07 Never Going Back Again
08 Landslide
09 Over My Head
10 Gold Dust Woman
11 You Make Loving Fun
12 I’m So Afraid
13 Go Your Own Way
14 World Turning
15 Blue Letter
16 The Chain
17 Second Hand News
18 Songbird
Known Flaws:
-Gold Dust Woman: start slightly cut
Intro to the Lost and Found Mike the MICrophone Series
Welcome to JEMS’ Lost and Found Mike the MICrophone series presenting recordings made by legendary taper Mike Millard, AKA Mike the MICrophone, best known for his masters of Led Zeppelin done in and around Los Angeles circa 1975-77. For further details on how tapes in this series came to be lost and found again, as well as JEMS' history with Mike Millard, please refer to the notes in Vol. One: http://www.dimeadozen.org/torrents-d..php?id=500680
Until this year, the Lost and Found series presented fresh transfers of previously unavailable first-generation copies made by Mike himself for friends like Stan Gutoski of JEMS, Jim R and Barry G. These sources were upgrades to circulating copies and in most instances marked the only time verified first generation Millard sources had been directly digitized in the torrent era.
That all changed with the discovery of many of Mike Millard’s original master tapes.
Yes, you read that correctly, Mike Millard’s master cassettes, long rumored to be destroyed or lost, have been found. Not all of them, but many, and with them a much more complete picture has emerged of what Millard recorded between his first show in late 1973 and his last in early 1992.
The reason the rediscovery of his master tapes is such a revelation is that we’ve been told for decades they were long gone. Internet myths suggest Millard destroyed his master tapes before taking his own life, an imprudent detail likely concocted based on the assumption that because his master tapes never surfaced and Mike’s mental state was troubled he would do something rash WITH HIS LIFE’S WORK. There’s also a version of the story where Mike’s family dumps the tapes after he dies. Why would they do that?
The truth is Mike’s masters remained in his bedroom for many years after his death in 1994. We know at least a few of Millard’s friends and acquaintances contacted his mother Lia inquiring about the tapes at the time to no avail. But in the early 2000s, longtime Millard friend Rob S was the one she knew and trusted enough to preserve Mike’s work.
Here is Rob’s account of how Millard’s master tapes were saved:
After Mike left us, I visited his mom Lia occasionally, usually around the holidays. She’d talk about the grandkids and show me pictures. She had no one to help out around the house so I did some minor improvements like fixing a kitchen shelf that collapsed and another time a gate that hadn’t worked for years.
After a few visits, I explained to Lia how the tapes were metal, up to 25 years old already and would eventually deteriorate. She agreed to let me take the tapes and make copies. We went into Mike’s bedroom and it was exactly like I remembered it when I was there years before. I loaded up every tape I could find and went to work copying them. Oldest first, some requiring “surgery.”
Months later when I was done copying, I compared what I had copied to a list Mike had compiled of his masters and realized there were many shows missing. I returned the tapes and asked Lia if we could see if there were any more somewhere else in the house. We went into a back bedroom and found a bunch of boxes filled with more original master tapes. I loaded them up, thanked Lia and left. This was the last time I would see her. I copied the rest of the tapes and stored the masters in a cool dry place until late last year when Jim R. reached out. We had known each other through Mike. After speaking with Jim and later BK who had tracked him down, I knew their partnership was the “right way” to get this music out to everyone who wanted it. I’m sure Mike would agree.
###
Initially, Rob copied a large batch of Millard’s master cassettes to DAT and returned them to the house. The second time around, he was given a large portion of the cassette collection, different from what he had copied to DAT.
The first round of DAT transfers features some of Millard’s most famous recordings of Led Zeppelin, ELP, the Rolling Stones and Jethro Tull. The second traunch of actual cassette masters includes his captures of Yes, Genesis, Peter Gabriel, Rush and Pink Floyd.
As exciting as it is to access Millard’s masters of the shows we know and love, there are many new recordings in both batches from artists like Elton John, Queen, Thin Lizzy, Eric Clapton, The Who, the Rolling Stones, Paul McCartney, Fleetwood Mac, Tom Petty, Guns N’ Roses, Linda Ronstadt, David Bowie, the Moody Blues, U2 and more.
Even with an information gap in the mid ‘80s (when Millard was surely taping but there is no tape or written evidence as to what he captured), we have confirmed over 290 shows Millard did record. Of those, there are master cassettes for approximately 100 shows, DATs off masters of another 75 and first generation analog copies for 30-35. Collectively, that nearly quadruples the number of extant Millard recordings.
Our original master tapes series began with Pink Floyd, which you can find here:
http://www.dimeadozen.org/torrents-d..d=667745&hit=1
http://www.dimeadozen.org/torrents-d..d=667750&hit=1
Fleetwood Mac, The Forum, Inglewood, CA, August 30, 1977
We continue our series with another recording we believe to be previously uncirculated, Fleetwood Mac at the Fabulous Forum 1977, a show that lands pretty damn close to the apex of the Rumours tour. It is the second night of a homecoming stand and the crowd lets the Mac know how excited they are to see them. Mike and Jim were set up in Section B, row 2. The quality of their pull is similar to the recent Queen ’77 release, with just a touch of distance back from the PA and a very excited crowd. By any standard it is an excellent recording and certainly one of the best I’ve heard from the ’77 tour. Samples provided.
The performance is equally compelling. I always find it interesting to hear what would become a band’s most famous songs performed on the first tour they were played and here the Rumours material sounds fresh, the arrangements not always fully adhering to the album versions with several moments of stretching out or pulling back. All the big songs—“Dreams” “Don’t Stop,” “Go Your Own Way,” “The Chain,” “Second Hand News,” “Gold Dust Woman—fare well, though “You Make Loving Fun” is surprisingly reserved.
As the lineage above notes, this was one of the master tapes Rob borrowed and transferred to DAT in the early 2000s. That DAT was digitally ripped earlier this year and provides the source for this torrent.
Here’s what Jim R remembers about the show:
On August 30, 1977 Mike and I attended Fleetwood Mac at The Fabulous Forum. Wow over 42 years ago. We sat Section B Row 2 (2nd row center) on the floor. I pushed Mike in the wheelchair on this, the second of two nights at the Forum.
Due to the huge popularity of the Rumours album, tickets were in extremely high demand. Fleetwood Mac had an upscale demographic, so choice floor seats were very costly. Therefore we attended only the one night. Sitting 2nd row center means we are about 10 feet or so from the 'security brutes' positioned along the front of the stage. We could get spotted and busted at any time!!! But second row center does have it's benefits:
Mick Fleetwood's facial expressions are quite entertaining.
John McVie lays down a great bass line.
At times, Lindsey uses a banjo-type method of playing guitar.
Christine is a steady mother figure.
And last but not least there is Stevie. Let’s just say it's hard to take your eyes off her.
Unfortunately all my rolls of slides were damaged somehow, the images got washed out.
Included are a couple photos that we were able to be partially restore.
Second row center was our 'Sweet Spot' for sound, as we could pick up the stage monitors as much if not more than the main PA. This result is a typical Millard Forum recording in its excellence.
###
Thanks to Rob, last week Jim and I had the opportunity to see Mike’s original Nakamichi 550 cassette deck on which he made all his fabulous recordings. I also learned that Rob borrowed Mike’s rig (including the AKG mics) on several occasions in the early ‘90s to record shows himself. We look forward to sharing some of those tapes along the way as well.
As I examined Millard’s Nak 550, I noticed there were strips of tape on the Record, Pause and Stop/Eject buttons, and each of the tape strips had different textures. Jim and Rob explained that Mike deployed this tactile system so he could reach into his bag hiding the Nak and operate the controls without having to look at the deck. His fingers could tell which button they were on by the texture of the tape strips. Genius!
JEMS is thrilled to partner with Rob, Jim R and Barry G to release Millard's historic recordings and to help set the record straight about the man himself. We can’t thank Rob enough for reconnecting with Jim and putting his trust in our Millard reissue campaign. He kept these precious tapes under wraps for two decades, but once he learned of our methods and stewardship, he agreed to contribute the Millard DATs and cassettes to the program.
Our series would not happen without the support of our post-production leader mjk5510, whose essential work is the straw the stirs the drink and he certainly deserves a drink on all of us.
Finally, cheers to the late, great Mike the MICrophone. May he rest in peace.
BK for JEMS

Fleetwood Mac - Dreams (2004 Remaster).mp3 9.96 MiB The Official UK Top 40 Singles Chart /38. Machine Gun Kelly & blackbear - my exs best friend.mp3 5.44 MiB. Fleetwood Mac Dreams Torrent Rating: 6,5/10 8373votes Remain one of the biggest. Thousands upon thousands of people plunk down some seriously major coin each and every time the group announces a new run through some of the finest basketball arenas and football stadiums around.

Fleetwood Mac - Greatest Hits (US First Press)
Жанр: Rock
Год выпуска диска: 1988 (1990)
Производитель диска: US // Warner Bros. // 9 25801-2
Аудио кодек: FLAC
Тип рипа

Fleetwood Mac Discography Torrent

: tracks+.cue
Битрейт аудио: lossless
Трэклист:
01. Rhiannon (Nicks) – 4:11
02. Don't Stop (McVie) – 3:12
03. Go Your Own Way (Buckingham) – 3:38
04. Hold Me (McVie, Patton) – 3:45
05. Everywhere (McVie) – 3:42
06. Gypsy (Nicks) – 4:24
07. You Make Loving Fun (McVie) – 3:31
08. As Long as You Follow (McVie) – 4:10
09. Dreams (Nicks) – 4:14
10. Say You Love Me (McVie) – 4:10
11. Tusk (Buckingham) – 3:30
12. Little Lies (McVie, Quintela) – 3:38
13. Sara (Nicks) – 6:22
14. Big Love (Buckingham) – 3:38Download
15. Over My Head (McVie) – 3:34
16. No Questions Asked (Nicks) – 4:40

Fleetwood Mac Albums


Диск из коллекции Fleetwood mac albumseugubarenko.

CD: XLD Log

X Lossless Decoder version 20100424 (118.0)
XLD extraction logfile from 2010-04-29 19:06:18 +0600
Fleetwood Mac / Greatest Hits
Used drive : MATSHITA DVD-R UJ-857 (revision HAEA)
Use cdparanoia mode : YES (CDParanoia III 10.2 engine)Disable audio cache : OK for the drive with cache less than 2750KBMake use of C2 pointers : NORead offset correction : 102Max retry count : 100
TOC of the extracted CD Track Start Length Start sector End sector --------------------------------------------------------- 1 00:00:32 04:11:43 32 18899 2 04:12:00 03:12:00 18900 33299 3 07:24:00 03:38:42 33300 49691 4 11:02:42 03:45:38 49692 66604 5 14:48:05 03:42:27 66605 83281 6 18:30:32 04:24:68 83282 103149 7 22:55:25 03:31:40 103150 119014 8 26:26:65 04:10:22 119015 137786 9 30:37:12 04:14:48 137787 156884 10 34:51:60 04:10:22 156885 175656 11 39:02:07 03:30:13 175657 191419 12 42:32:20 03:38:02 191420 207771 13 46:10:22 06:22:50 207772 236471 14 52:32:72 03:38:63 236472 252884 15 56:11:60 03:34:50 252885 268984 16 59:46:35 04:40:70 268985 290054
List of alternate offset correction values # Absolute Relative Confidence ------------------------------------------ 1 -438 -540 140 2 278 176 106 3 1503 1401 97 4 -1785 -1887 57 5 -208 -310 46 6 695 593 34 7 -94 -196 30 8 -1775 -1877 26 9 60 -42 15 10 611 509 11 11 -1871 -1973 9 12 23 -79 7 13 -1988 -2090 3 14 2397 2295 2
Track 01 Filename : /Users/gubarenko/Desktop/Fleetwood Mac - Greatest Hits/01 - Rhiannon.flac
Pre-gap length : 00:02:32
CRC32 hash (test run) : 4205FACB CRC32 hash : 4205FACB CRC32 hash (skip zero) : 58F5EDB1 AccurateRip signature : D6F9AA58 ->Accurately ripped! (confidence 13) Statistics Read error : 0 Skipped (treated as error) : 0 Edge jitter error (maybe fixed) : 0 Atom jitter error (maybe fixed) : 0 Drift error (maybe fixed) : 0 Dropped bytes error (maybe fixed) : 0 Duplicated bytes error (maybe fixed) : 0 Inconsistency in error sectors : 0
Track 02 Filename : /Users/gubarenko/Desktop/Fleetwood Mac - Greatest Hits/02 - Don't Stop.flac
Pre-gap length : 00:01:38
CRC32 hash (test run) : 430174DC CRC32 hash : 430174DC CRC32 hash (skip zero) : FDB1DF07 AccurateRip signature : 80103B33 ->Accurately ripped! (confidence 12) Statistics Read error : 0 Skipped (treated as error) : 0 Edge jitter error (maybe fixed) : 1 Atom jitter error (maybe fixed) : 0 Drift error (maybe fixed) : 0 Dropped bytes error (maybe fixed) : 1 Duplicated bytes error (maybe fixed) : 1 Inconsistency in error sectors : 0
Track 03 Filename : /Users/gubarenko/Desktop/Fleetwood Mac - Greatest Hits/03 - Go Your Own Way.flac
Pre-gap length : 00:01:28
CRC32 hash (test run) : 5C1E6E1A CRC32 hash : 5C1E6E1A CRC32 hash (skip zero) : EED94E6A AccurateRip signature : F54EF82F ->Accurately ripped! (confidence 13) Statistics Read error : 0 Skipped (treated as error) : 0 Edge jitter error (maybe fixed) : 1 Atom jitter error (maybe fixed) : 0 Drift error (maybe fixed) : 0 Dropped bytes error (maybe fixed) : 0 Duplicated bytes error (maybe fixed) : 1 Inconsistency in error sectors : 0
Track 04 Filename : /Users/gubarenko/Desktop/Fleetwood Mac - Greatest Hits/04 - Hold Me.flac
Pre-gap length : 00:02:10
CRC32 hash (test run) : 34612EBB CRC32 hash : 34612EBB CRC32 hash (skip zero) : 8EA973FB AccurateRip signature : B9971824 ->Accurately ripped! (confidence 13) Statistics Read error : 0 Skipped (treated as error) : 0 Edge jitter error (maybe fixed) : 1 Atom jitter error (maybe fixed) : 0 Drift error (maybe fixed) : 0 Dropped bytes error (maybe fixed) : 0 Duplicated bytes error (maybe fixed) : 1 Inconsistency in error sectors : 0
Track 05 Filename : /Users/gubarenko/Desktop/Fleetwood Mac - Greatest Hits/05 - Everywhere.flac
Pre-gap length : 00:01:05
CRC32 hash (test run) : F351DA86 CRC32 hash : F351DA86 CRC32 hash (skip zero) : 94F45B01 AccurateRip signature : F30F7456 ->Accurately ripped! (confidence 13) Statistics Read error : 0 Skipped (treated as error) : 0 Edge jitter error (maybe fixed) : 0 Atom jitter error (maybe fixed) : 0 Drift error (maybe fixed) : 0 Dropped bytes error (maybe fixed) : 0 Duplicated bytes error (maybe fixed) : 0 Inconsistency in error sectors : 0
Track 06 Filename : /Users/gubarenko/Desktop/Fleetwood Mac - Greatest Hits/06 - Gypsy.flac
Pre-gap length : 00:01:02
CRC32 hash (test run) : 2454FA86 CRC32 hash : 2454FA86 CRC32 hash (skip zero) : F7ED469C AccurateRip signature : C20A5D2B ->Accurately ripped! (confidence 12) Statistics Read error : 0 Skipped (treated as error) : 0 Edge jitter error (maybe fixed) : 0 Atom jitter error (maybe fixed) : 0 Drift error (maybe fixed) : 0 Dropped bytes error (maybe fixed) : 0 Duplicated bytes error (maybe fixed) : 0 Inconsistency in error sectors : 0
Track 07 Filename : /Users/gubarenko/Desktop/Fleetwood Mac - Greatest Hits/07 - You Make Loving Fun.flac
Pre-gap length : 00:01:18
CRC32 hash (test run) : F80EDEEA CRC32 hash : F80EDEEA CRC32 hash (skip zero) : 10C9B503 AccurateRip signature : ACFB89C2 ->Accurately ripped! (confidence 11) Statistics Read error : 0 Skipped (treated as error) : 0 Edge jitter error (maybe fixed) : 1 Atom jitter error (maybe fixed) : 0 Drift error (maybe fixed) : 0 Dropped bytes error (maybe fixed) : 0 Duplicated bytes error (maybe fixed) : 1 Inconsistency in error sectors : 0
Track 08 Filename : /Users/gubarenko/Desktop/Fleetwood Mac - Greatest Hits/08 - As Long As You Follow.flac
Pre-gap length : 00:01:23
CRC32 hash (test run) : A8A65968 CRC32 hash : A8A65968 CRC32 hash (skip zero) : 691960E1 AccurateRip signature : F6663944 ->Accurately ripped! (confidence 12) Statistics Read error : 0 Skipped (treated as error) : 0 Edge jitter error (maybe fixed) : 0 Atom jitter error (maybe fixed) : 0 Drift error (maybe fixed) : 0 Dropped bytes error (maybe fixed) : 0 Duplicated bytes error (maybe fixed) : 0 Inconsistency in error sectors : 0
Track 09 Filename : /Users/gubarenko/Desktop/Fleetwood Mac - Greatest Hits/09 - Dreams.flac
Pre-gap length : 00:01:00
CRC32 hash (test run) : 8C463E2F CRC32 hash : 8C463E2F CRC32 hash (skip zero) : BCD5F4A4 AccurateRip signature : D3E63530 ->Accurately ripped! (confidence 13) Statistics Read error : 0 Skipped (treated as error) : 0 Edge jitter error (maybe fixed) : 1 Atom jitter error (maybe fixed) : 0 Drift error (maybe fixed) : 0 Dropped bytes error (maybe fixed) : 0 Duplicated bytes error (maybe fixed) : 1 Inconsistency in error sectors : 0
Track 10 Filename : /Users/gubarenko/Desktop/Fleetwood Mac - Greatest Hits/10 - Say You Love Me.flac
Pre-gap length : 00:00:33
CRC32 hash (test run) : 2A75716F CRC32 hash : 2A75716F CRC32 hash (skip zero) : FD3CED07 AccurateRip signature : CC6D674D ->Accurately ripped! (confidence 11) Statistics Read error : 0 Skipped (treated as error) : 0 Edge jitter error (maybe fixed) : 2 Atom jitter error (maybe fixed) : 0 Drift error (maybe fixed) : 0 Dropped bytes error (maybe fixed) : 1 Duplicated bytes error (maybe fixed) : 2 Inconsistency in error sectors : 0
Track 11 Filename : /Users/gubarenko/Desktop/Fleetwood Mac - Greatest Hits/11 - Tusk.flac
Pre-gap length : 00:00:50
CRC32 hash (test run) : 70626E73 CRC32 hash : 70626E73 CRC32 hash (skip zero) : 8D0843BA AccurateRip signature : BE2380A4 ->Accurately ripped! (confidence 13) Statistics Read error : 0 Skipped (treated as error) : 0 Edge jitter error (maybe fixed) : 2 Atom jitter error (maybe fixed) : 1 Drift error (maybe fixed) : 0 Dropped bytes error (maybe fixed) : 1 Duplicated bytes error (maybe fixed) : 1 Inconsistency in error sectors : 0
Track 12 Filename : /Users/gubarenko/Desktop/Fleetwood Mac - Greatest Hits/12 - Little Lies.flac
Pre-gap length : 00:00:40
CRC32 hash (test run) : 51CDAC13 CRC32 hash : 51CDAC13 CRC32 hash (skip zero) : F13EE779 AccurateRip signature : 0C5C0074 ->Accurately ripped! (confidence 13) Statistics Read error : 0 Skipped (treated as error) : 0 Edge jitter error (maybe fixed) : 2 Atom jitter error (maybe fixed) : 0 Drift error (maybe fixed) : 0 Dropped bytes error (maybe fixed) : 1 Duplicated bytes error (maybe fixed) : 2 Inconsistency in error sectors : 0
Track 13 Filename : /Users/gubarenko/Desktop/Fleetwood Mac - Greatest Hits/13 - Sara.flac
Pre-gap length : 00:01:12
CRC32 hash (test run) : 2F0113D3 CRC32 hash : 2F0113D3 CRC32 hash (skip zero) : 27E9A7C9 AccurateRip signature : F0458EA1 ->Accurately ripped! (confidence 13) Statistics Read error : 0 Skipped (treated as error) : 0 Edge jitter error (maybe fixed) : 1 Atom jitter error (maybe fixed) : 0 Drift error (maybe fixed) : 0 Dropped bytes error (maybe fixed) : 0 Duplicated bytes error (maybe fixed) : 1 Inconsistency in error sectors : 0
Track 14 Filename : /Users/gubarenko/Desktop/Fleetwood Mac - Greatest Hits/14 - Big Love.flac
Pre-gap length : 00:00:52
CRC32 hash (test run) : 60E6B1BA CRC32 hash : 60E6B1BA CRC32 hash (skip zero) : D2ED3632 AccurateRip signature : 37E9F2EF ->Accurately ripped! (confidence 13) Statistics Read error : 0 Skipped (treated as error) : 0 Edge jitter error (maybe fixed) : 1 Atom jitter error (maybe fixed) : 1 Drift error (maybe fixed) : 0 Dropped bytes error (maybe fixed) : 0 Duplicated bytes error (maybe fixed) : 0 Inconsistency in error sectors : 0
Track 15 Filename : /Users/gubarenko/Desktop/Fleetwood Mac - Greatest Hits/15 - Over My Head.flac
Pre-gap length : 00:00:65
CRC32 hash (test run) : 1EAD0719 CRC32 hash : 1EAD0719 CRC32 hash (skip zero) : 32A880DF AccurateRip signature : F588EA90 ->Accurately ripped! (confidence 11) Statistics Read error : 0 Skipped (treated as error) : 0 Edge jitter error (maybe fixed) : 0 Atom jitter error (maybe fixed) : 0 Drift error (maybe fixed) : 0 Dropped bytes error (maybe fixed) : 0 Duplicated bytes error (maybe fixed) : 0 Inconsistency in error sectors : 0
Track 16 Filename : /Users/gubarenko/Desktop/Fleetwood Mac - Greatest Hits/16 - No Questions Asked.flac
Pre-gap length : 00:00:65
CRC32 hash (test run) : CAECCD8A CRC32 hash : CAECCD8A CRC32 hash (skip zero) : 4AF638A8 AccurateRip signature : D4B20BF4 ->Accurately ripped! (confidence 11) Statistics Read error : 0 Skipped (treated as error) : 0 Edge jitter error (maybe fixed) : 0 Atom jitter error (maybe fixed) : 0 Drift error (maybe fixed) : 0 Dropped bytes error (maybe fixed) : 0 Duplicated bytes error (maybe fixed) : 0 Inconsistency in error sectors : 0
No errors occurred
End of status report

Fleetwood Mac Mp3 Download

CD: CUE

TITLE 'Greatest Hits'PERFORMER 'Fleetwood Mac'CATALOG 0075992580120REM GENRE 'Rock'REM DATE 1988FILE '01 - Rhiannon.wav' WAVE TRACK 01 AUDIO TITLE 'Rhiannon' INDEX 00 00:00:00 INDEX 01 00:00:32 TRACK 02 AUDIO TITLE 'Don't Stop' INDEX 00 04:10:05FILE '02 - Don't Stop.wav' WAVE INDEX 01 00:00:00 TRACK 03 AUDIO TITLE 'Go Your Own Way' INDEX 00 03:10:47FILE '03 - Go Your Own Way.wav' WAVE INDEX 01 00:00:00 TRACK 04 AUDIO TITLE 'Hold Me' INDEX 00 03:36:32FILE '04 - Hold Me.wav' WAVE INDEX 01 00:00:00 TRACK 05 AUDIO TITLE 'Everywhere' INDEX 00 03:44:33FILE '05 - Everywhere.wav' WAVE INDEX 01 00:00:00 TRACK 06 AUDIO TITLE 'Gypsy' INDEX 00 03:41:25FILE '06 - Gypsy.wav' WAVE INDEX 01 00:00:00 TRACK 07 AUDIO TITLE 'You Make Loving Fun' INDEX 00 04:23:50FILE '07 - You Make Loving Fun.wav' WAVE INDEX 01 00:00:00 TRACK 08 AUDIO TITLE 'As Long As You Follow' INDEX 00 03:30:17FILE '08 - As Long As You Follow.wav' WAVE INDEX 01 00:00:00 TRACK 09 AUDIO TITLE 'Dreams' INDEX 00 04:09:22FILE '09 - Dreams.wav' WAVE INDEX 01 00:00:00 TRACK 10 AUDIO TITLE 'Say You Love Me' INDEX 00 04:14:15FILE '10 - Say You Love Me.wav' WAVE INDEX 01 00:00:00 TRACK 11 AUDIO TITLE 'Tusk' INDEX 00 04:09:47FILE '11 - Tusk.wav' WAVE INDEX 01 00:00:00 TRACK 12 AUDIO TITLE 'Little Lies' INDEX 00 03:29:48FILE '12 - Little Lies.wav' WAVE INDEX 01 00:00:00 TRACK 13 AUDIO TITLE 'Sara' INDEX 00 03:36:65FILE '13 - Sara.wav' WAVE INDEX 01 00:00:00 TRACK 14 AUDIO TITLE 'Big Love' INDEX 00 06:21:73FILE '14 - Big Love.wav' WAVE INDEX 01 00:00:00 TRACK 15 AUDIO TITLE 'Over My Head' INDEX 00 03:37:73FILE '15 - Over My Head.wav' WAVE INDEX 01 00:00:00 TRACK 16 AUDIO TITLE 'No Questions Asked' INDEX 00 03:33:60FILE '16 - No Questions Asked.wav' WAVE INDEX 01 00:00:00

All Fleetwood Mac Albums


t_2939645.torrent
Torrent: Registered · [ 2018-04-20 22:10 ] · 8747708c11e7efb5f92bbae7a7b088d645838ae7

23 KB

Status:checked
Completed:1 times
Size:524 MB
Rating:
Say thanks:0
Похожие темы
ForumTopicAuthorTorrentRepliesLast Post
./templates/default/images/folder_dl.gifIndie, Post-Rock & Post-Punk (lossy)(Indie Rock / Christian) Kensington - Коллекция: 8 Релизов - 2008 -..00654 MB

1282

2

2021-01-09 20:21
vatlor
./templates/default/images/folder_dl.gifPS3[PS3] Fallout 3: Game Of The Year Edition (Greatest Hits) [USA/ENG]009.93 GB

09

0

2020-12-26 14:05
temkin_88
./templates/default/images/folder_dl.gifPS3[PS3] Mortal Kombat Komplete Edition (Greatest Hits) [USA/ENG]0010.34 GB

07

0

2020-12-26 14:05
temkin_88
./templates/default/images/folder_dl.gifPS3[PS3] South Park: The Stick of Truth (Greatest Hits) [USA/ENG]003.89 GB

015

0

2020-12-26 14:05
temkin_88
./templates/default/images/folder_dl.gifPS3[PS3] Rock Band [EUR/ENG]004.6 GB

031

0

2020-12-26 14:05
temkin_88
./templates/default/images/folder_dl.gifRock (DVD Video)Cinderella - Rocked, Wired & Bluesed [2005, Hard Rock / Hard..005.53 GB

1288

2

2020-12-23 19:50
henryfox1
./templates/default/images/folder_dl.gifДжаз и Блюз (DVD Видео)Joe Cocker - Fire it Up: Live [2019, Rock, Blues, Soul, BD=>DVD9]007.88 GB

1444

1

2020-12-20 09:22
xxxoxol13
./templates/default/images/folder_dl.gifSludge, Stoner, Post-Metal (lossless)(Psychedelic Rock, Heavy Psych) [CD] King Buffalo - Dead Star - 2020,..00214 MB

041

0

2020-12-11 23:45
Nestor_13
./templates/default/images/folder_dl.gifSludge, Stoner, Post-Metal (lossless)(Experimental Rock) [STREAM] Boris & Merzbow - 2R0I2P0 - 2020,..00599 MB

041

0

2020-12-11 23:45
Nestor_13
./templates/default/images/folder_dl.gifSludge, Stoner, Post-Metal (lossy)(Stoner Rock) Holy Mountain - Ancient Astronauts - 2014, MP3, 320 kbps0085 MB

045

0

2020-12-11 23:45
kadSM